foo_dr.txt

(1 KB) Pobierz
foobar2000 1.1.7 / Dynamic Range Meter 1.1.1
log date: 2014-04-02 09:09:03

--------------------------------------------------------------------------------
Analyzed: UFO / Phenomenon
--------------------------------------------------------------------------------

DR         Peak         RMS     Duration Track
--------------------------------------------------------------------------------
DR8       -0.07 dB    -9.42 dB      2:25 01-Oh My
DR8       -0.07 dB   -10.33 dB      3:48 02-Crystal Light
DR8        0.00 dB    -9.29 dB      4:13 03-Doctor Doctor
DR9       -0.08 dB   -10.79 dB      4:02 04-Space Child
DR8       -0.07 dB    -9.69 dB      6:29 05-Rock Bottom
DR8       -0.07 dB    -8.59 dB      3:09 06-Too Young To Know
DR8       -0.11 dB   -11.23 dB      4:12 07-Time On My Hands
DR9       -0.07 dB   -10.41 dB      3:08 08-Built For Comfort
DR9       -0.46 dB   -11.24 dB      2:21 09-Lipstick Traces
DR8       -0.21 dB    -9.83 dB      5:49 10-Queen Of The Deep
DR9       -0.08 dB   -10.91 dB      3:48 11-Sixteen (Demo) / Bonus Track
DR8       -0.07 dB   -10.08 dB      4:13 12-Oh My (Demo) / Bonus Track
DR7       -2.00 dB   -10.43 dB      3:59 13-Give Her The Gun (A-Side) / Bonus Track
DR9       -2.34 dB   -12.81 dB      3:52 14-Sweet Little Thing (B-Side) / Bonus Track
DR10      -0.07 dB   -11.14 dB      3:55 15-Sixteen (Outtacke) / Bonus Track
--------------------------------------------------------------------------------

Number of tracks:  15
Official DR value: DR8

Samplerate:        44100 Hz
Channels:          2
Bits per sample:   16
Bitrate:           1411 kbps
Codec:             PCM
================================================================================

Zgłoś jeśli naruszono regulamin