foo_dr.txt

(1 KB) Pobierz
foobar2000 1.1.7 / Dynamic Range Meter 1.1.1
log date: 2014-04-01 20:02:11

--------------------------------------------------------------------------------
Analyzed: UFO / No Heavy Petting
--------------------------------------------------------------------------------

DR         Peak         RMS     Duration Track
--------------------------------------------------------------------------------
DR8       -0.07 dB    -9.24 dB      4:01 01-Natural Thing
DR7       -0.07 dB   -10.09 dB      3:55 02-I'm A Loser
DR7       -0.18 dB    -8.45 dB      2:59 03-Can You Roll Her
DR10      -0.28 dB   -12.47 dB      4:33 04-Belladonna
DR7       -0.07 dB    -8.50 dB      3:18 05-Reasons Love
DR6       -0.07 dB    -7.20 dB      3:50 06-Highway Lady
DR7       -0.07 dB    -8.40 dB      5:04 07-On With The Action
DR8       -0.11 dB    -9.65 dB      2:50 08-A Fool In Love
DR8       -0.24 dB   -10.71 dB      5:11 09-Martian Landscape
DR9       -0.07 dB   -10.37 dB      3:31 10-All Or Nothing / Bonus Track
DR9       -0.07 dB    -9.53 dB      3:07 11-French Kisses / Bonus Track
DR11      -0.07 dB   -12.26 dB      4:00 12-Have You Seen Me Lately Joan / Bonus Track
DR8       -0.07 dB   -10.32 dB      3:17 13-Tonight Tonight / Bonus Track
DR12      -0.07 dB   -14.20 dB      5:58 14-All The Strings / Bonus Track
--------------------------------------------------------------------------------

Number of tracks:  14
Official DR value: DR8

Samplerate:        44100 Hz
Channels:          2
Bits per sample:   16
Bitrate:           1411 kbps
Codec:             PCM
================================================================================

Zgłoś jeśli naruszono regulamin